Enable / Włącz Javascript
 Widok 
 Kategorie 
 Nitro Torrent w sieci 
 Top 10 użytkowników 
 BROKEN (2017) S01E06 [FINAL] [480P] [HDTV] [X264-666] [LEKTOR PL]

BROKEN (2017) S01E06 [FINAL] [480P] [HDTV] [X264-666] [LEKTOR PL]
Kategoria: » » » »
Dodane: 07/12/2018
Rozmiar: 549.83 MB
Uploader: tomysparow559 (10)
seed(ów): 25
leecher(ów): 21
Pobrane: 54
Komentarzy: 0
Pobierz Torrent Pobierz Torrent
Pobierz [Magnet] Pobierz [Magnet]

Obserwuj
Raportuj
==================
...::: INFO :::...
==================

Ocena: IMDB - 8.0/10 (26)
Produkcja: Wielka Bytania
Stacja TV: BBC One
Gatunek: Dramat
Czas trwania: 56 min
Premiera: 30.05.2017 - Świat
Twórca: Jimmy'e McGovern

==================
...::: OPIS :::...
==================

Ojciec Michael Kerrigan, katolicki kapłan, pasterz parafii miejskiej, współczesnej, upolitycznionej i zwyczajnie niedoskonałej. Musi być powiernikiem, doradcą i spowiednikiem zgromadzenia zmagającego się z pogodzeniem przekonań religijnych z wyzwaniami dnia codziennego.

==============
...::: OBSADA :::...
==============

Sean Bean ... Ojciec Michael Kerrigan
Adrian Dunbar ... Ojciec Peter Flaherty
Fin Campbell ... Michael w wieku 10lat
Sam Rintoul ... Młody Michael Kerrigan
Muna Otaru ... Helen Oyenusi
Mark Stanley ... P.C Andrew Powell
Vanessa Earl ... Beth Kerrigan
Aine Ni Mhuiri ... Mam - Michaela

=======================
...::: DANE TECHNICZNE :::...
=======================


Format : Matroska
Format version : Version 4
File size : 550 MiB
Duration : 52 min 35 s
Overall bit rate : 1 461 kb/s
Encoded date : UTC 2018-11-24T08:03:31Z
Writing application : HandBrake 1.0.7 2017040900
Writing library : Lavf57.7.2

Video
ID : 1
Format : AVC
Format/INFO : Advanced Video Codec
Format profile : High@L4
Format settings : CABAC / 4 Ref Frames
Format settings, CABAC : Yes
Format settings, ReFrames : 4 frames
Codec ID : V_MPEG4/ISO/AVC
Duration : 52 min 35 s
Bit rate : 1 300 kb/s
Width : 854 pixels
Height : 480 pixels
Display aspect ratio : 16:9
Original display aspect ratio : 16:9
Frame rate mode : Constant
Frame rate : 25.000 FPS
Color space : YUV
Chroma subsampling : 4:2:0
Bit depth : 8 bits
Scan type : Progressive
Bits/(Pixel*Frame) : 0.127
Stream size : 478 MiB (87%)
Writing library : x264 core 148 r2708 86b7198
Encoding settings : cabac=1 / ref=1 / deblock=1:-1:-1 / analyse=0x3:0x113 / me=hex / subme=2 / psy=1 / psy_rd=1.00:0.15 / mixed_ref=0 / me_range=16 / chroma_me=1 / trellis=0 / 8x8dct=1 / cqm=0 / deadzone=21,11 / fast_pskip=1 / chroma_qp_offset=0 / threads=6 / lookahead_threads=2 / sliced_threads=0 / nr=0 / decimate=1 / interlaced=0 / bluray_compat=0 / constrained_intra=0 / bframes=3 / b_pyramid=2 / b_adapt=1 / b_bias=0 / direct=1 / weightb=1 / open_gop=0 / weightp=1 / keyint=250 / keyint_min=25 / scenecut=40 / intra_refresh=0 / rc_lookahead=10 / rc=abr / mbtree=1 / bitrate=1300 / ratetol=1.0 / qcomp=0.60 / qpmin=0 / qpmax=69 / qpstep=4 / vbv_maxrate=25000 / vbv_bufsize=31250 / nal_hrd=none / filler=0 / ip_ratio=1.40 / aq=1:1.00
Default : Yes
Forced : No
Color range : Limited
Color primaries : BT.709
Transfer characteristics : BT.709
Matrix coefficients : BT.709

Audio
ID : 2
Format : AC-3
Format/INFO : Audio Coding 3
Commercial name : Dolby Digital
Codec ID : A_AC3
Duration : 52 min 35 s
Bit rate mode : Constant
Bit rate : 160 kb/s
Channel(s) : 2 channels
Channel layout : L R
Sampling rate : 48.0 kHz
Frame rate : 31.250 FPS (1536 SPF)
Bit depth : 16 bits
Compression mode : Lossy
Delay relative to video : 14 ms
Stream size : 60.2 MiB (11%)
Title : Stereo
Language : Polish
Service kind : Complete Main
Default : Yes
Forced : No
Dostępne napisy
Brak napisów
Szczegóły torrenta
Tracker http://tracker2.itzmx.com:6961/announce
Multitracker [ Pokaż ]
Kategoria: » » » » [Zgłoś błąd]
Dodane 07-12-2018
Podziękowali:
0 użytkowników 
Podziękuj!
Pokaż / Ukryj pliki:
Nazwa pliku Rozmiar
! Chcesz mieć TO szybciej - zapraszamy-KLIK.url 0.11 KB
! Want YOU more -CLIK.url 0.11 KB
Zapraszamy-KLIK.url 0.11 KB
LoGo.png 202.81 KB
B.2017.S01E06.FiNAL.PL.480p.HDTV.x264-666.mkv 549.63 MB
5 plików
Brak komentarzy...